#TITLE:Bye Bye Baby Balloon;
#SUBTITLE:(Speedcore Instrumental Mix);
#ARTIST:DJ Acubavix feat. Joga;
#TITLETRANSLIT:;
#SUBTITLETRANSLIT:;
#ARTISTTRANSLIT:;
#CREDIT:;
#BANNER:BBBB.PNG;
#BACKGROUND:BBBB-BG.PNG;
#LYRICSPATH:;
#CDTITLE:;
#MUSIC:DJ Acubavix feat. Joga - Bye Bye Baby Balloon (Speedcore Instrumental Mix).mp3;
#OFFSET:-4.640;
#SAMPLESTART:0.005;
#SAMPLELENGTH:12.000;
#SELECTABLE:YES;
#BPMS:0.000=208.000;
#STOPS:;
#BGCHANGES:;
// cache tags:
#FIRSTBEAT:0.000;
#LASTBEAT:187.000;
#SONGFILENAME:Songs/Music V.I.P ^_^/Bye Bye Baby Baloon/BBBB.sm;
#HASMUSIC:1;
#HASBANNER:1;
#MUSICLENGTH:60.350;
// end cache tags

//---------------dance-single - Light----------------
#NOTES:
     dance-single:
     Light:
     Easy:
     6:
     0.400,0.379,0.232,0.099,0.000,149.000,14.000,6.000,0.000,0.000:
1000
0100
0010
0001
,
1000
0100
0010
0001
,
1000
0100
0010
0001
,
0001
0010
0100
1000
,
1001
0000
0110
0000
,
0001
1000
0001
0000
,
0110
0000
1001
0000
,
0100
0010
0100
0000
,
1100
0000
0011
0000
,
1000
0100
0010
0000
,
0011
0000
1100
0000
,
0001
0010
0100
0000
,
1000
0100
1000
0100
,
0010
0001
0010
0001
,
0010
0000
0100
0000
0010
0000
0000
0001
,
0000
1000
0000
0001
0000
1000
0000
0000
,
1000
0100
1000
0010
,
0001
0010
0100
0010
,
1000
0001
1000
0100
,
0000
1000
0000
0001
0000
0100
0010
0000
,
0000
0010
0100
0010
,
1000
0100
0010
0100
,
0010
0001
0010
1000
,
0001
1000
0100
0010
,
0001
1000
0001
1001
,
0100
0010
1000
0001
,
0010
0100
0010
0001
,
1000
0010
0100
0001
,
1000
0100
0010
1001
,
1000
0010
0100
0001
,
0100
0010
1000
0010
,
0100
0001
0100
0001
,
0010
1000
0010
1001
,
0100
0010
0100
0010
,
1000
0001
1000
0001
,
0010
0100
0010
0100
,
1000
1000
1000
1000
,
2002
0000
0000
0000
,
3003
0000
0000
0000
,
0000
0000
0000
0000
,
1000
0010
0100
0001
,
2002
0000
0000
0000
,
3003
0000
0000
0000
,
1000
0100
1000
0100
,
0010
0001
0100
0010
,
2002
0000
0000
3003
;

//---------------dance-single - Standard----------------
#NOTES:
     dance-single:
     Standard:
     Medium:
     7:
     0.490,0.465,0.133,0.050,0.000,196.000,8.000,3.000,0.000,0.000:
1000
0000
0100
0000
1000
0100
1000
0000
,
0010
0000
0010
0000
0100
0010
0100
0000
,
1000
0000
1000
0000
1000
0001
1000
0000
,
0010
0000
0001
0000
1000
0100
1000
0100
,
1000
0000
0010
0000
1000
0000
0100
1000
,
0100
0000
0010
0000
0001
0000
0100
0001
,
0100
0010
1000
0100
,
0010
0000
0001
0000
0010
0001
0010
0001
,
0010
0100
1000
0010
,
1000
0000
0100
0000
0010
0001
0010
0001
,
0010
0100
1000
0010
,
1000
0010
1000
0000
0100
1000
0100
0000
,
0010
0010
0010
0010
,
0100
0100
0100
0100
,
0010
0000
0100
0000
0010
0000
0000
0101
,
0000
1010
0000
0101
0000
1010
0000
0000
,
1000
1000
1000
1000
,
0001
0001
0001
0001
,
1000
0000
0010
0000
0100
0000
0010
1000
,
0000
0010
0000
1000
0000
0100
0010
0000
,
0000
0010
0010
0010
,
0001
0001
1000
1000
,
1010
1010
0100
0100
,
0001
0001
0100
0100
,
0010
1000
1010
0101
,
0010
0000
0100
0000
0010
0100
0010
0000
,
0001
0000
0001
0000
1000
0001
1000
0000
,
0010
0000
1000
0000
0100
0010
0001
0010
,
0000
0000
0000
0100
1000
0010
1000
0100
,
0001
0010
0100
1000
,
0010
1000
0100
0010
,
0001
0100
0010
1000
,
0100
0000
0100
0000
0010
0001
0010
0000
,
0010
0010
0100
1000
,
0010
1000
0010
0000
0100
0000
0100
0000
,
1000
0010
1000
0000
0100
0000
0010
0000
,
0001
0000
0010
0000
,
0200
0000
0000
0000
,
0300
0000
0000
0000
,
1000
0000
0010
0000
1000
0000
0010
1000
,
0010
1000
0100
0010
,
0002
0000
0000
0000
,
0003
1000
0010
0100
,
1000
0010
1000
0000
0100
0000
0010
0000
,
0001
0000
1000
0000
0100
1000
0100
0000
,
2000
0000
0000
3010
,
0010
0010
0010
0010
;

//---------------dance-single - Heavy----------------
#NOTES:
     dance-single:
     Heavy:
     Hard:
     9:
     0.694,0.658,0.365,0.033,0.000,269.000,22.000,2.000,0.000,0.000:
1000
0000
0010
0000
0100
0001
0010
0100
,
1000
0000
1000
0000
1000
0010
0100
0001
,
0010
0010
0010
0010
,
0100
1000
0100
1000
0100
1000
0100
1000
,
0010
0000
0010
0000
0100
1000
0001
0010
,
0100
0000
0100
0000
0010
1000
0100
1000
,
0001
0000
0001
0000
0100
0010
0001
0010
,
0100
0000
0100
0000
1000
0010
0100
0001
,
0010
0000
0010
0000
0010
0100
0010
0100
,
0010
0000
0010
0000
0010
0001
0010
0100
,
1000
0000
1000
0000
0010
0001
0100
1000
,
0100
0000
0100
0000
0010
1000
0100
1000
,
0001
0000
0001
0000
0001
1000
0100
0010
,
0000
0000
0010
0000
0010
0001
0010
0100
,
0000
0000
0100
0000
0100
1000
0010
0100
,
0000
0110
0000
1001
0000
0110
0000
0000
,
0001
0000
0001
0000
0001
0010
0100
1000
,
0000
0000
1000
0000
1000
0010
0100
0001
,
0000
0000
0001
0000
0001
0010
0001
0010
,
0000
0110
0000
0011
0000
0100
1000
0000
,
0000
1010
1010
1010
,
0010
0000
0100
0000
0001
1000
0100
0010
,
0001
0000
0001
0000
0100
1000
0010
0100
,
0001
0000
0001
0000
0100
1000
0010
1000
,
0000
0000
1100
0000
0001
0100
0010
0100
,
0001
0000
0100
1000
0010
0100
0001
1000
,
0100
0000
0010
1000
0100
0010
0001
0010
,
0100
0000
1010
0000
0010
0100
0001
0100
,
0010
0000
1100
0000
0010
0100
0010
0100
,
0010
0000
0010
1000
0100
1000
0001
0100
,
0010
0000
0100
1000
0001
0100
0010
0100
,
0001
0000
0100
1000
0010
0100
0010
0100
,
0010
1001
1100
1010
,
0010
0000
0100
0000
0010
1000
0100
1000
,
0001
0000
0100
0010
0001
1000
0100
0010
,
0001
0000
0110
0000
0001
0010
0100
0010
,
0001
0000
0100
0000
1000
0010
1000
0010
,
1000
1100
0001
0100
,
0010
0000
1000
0000
1000
0100
1000
0100
,
1000
0010
0001
0100
0010
0000
0100
1000
,
0100
0001
0010
0001
1000
0010
0100
0010
,
0001
0100
0001
1000
0010
1000
0100
1000
,
0001
0100
0010
0100
0001
1000
0100
0010
,
0001
0100
1000
0010
,
0100
0000
0001
0000
1000
0010
1000
0000
,
0202
0000
0303
1010
,
0101
0011
1100
1001
;

//---------------dance-single - ----------------
#NOTES:
     dance-single:
     :
     Challenge:
     1:
     0.000,0.000,0.000,0.000,0.000,0.000,0.000,0.000,0.000,0.000:
0000
0000
0000
0000
;
